Torrent details for "The Apprentice (UK) You're Fired S15E02 (1280x720p HD, 50fps, soft Eng subs) "    Log in to bookmark

Loading...
Loading...
Torrent details
Cover
Download
Torrent rating (0 rated)
Controls:
Category:
Language:
English English
Total Size:
1.04 GB
Info Hash:
068ac739e418c6e5c7e8534ad6f8e3436bc15391
Added By:
Added:  
09-10-2019 23:16
Views:
89
Health:
Seeds:
6
Leechers:
3
Completed:
12

File List (7) : 
Genre:
Comedy, Reality-TV, Talk-Show
Runtime:
31 min    -    Rating: 5.9
Director:
n/A
Plot:
Seasons: 13 12 11 ... See all » Years: 2018 2017 2016 ... See all »

Description
The Apprentice (UK) You're Fired S15E02 (1280x720p HD, 50fps, soft Eng subs)

Host Tom Allen is joined by a panel of experts and celebrity fans to analyse this week's task and meet the latest candidate to be fired.

First broadcast:  9 October 2019
Duration:  30 minutes

Torrent dead? Request reseed at www.torrentgalaxy.eu - or ask at elsonroa at tutanota.com

Media info:-
General
Format : MPEG-4
Format profile : Base Media
Codec ID : isom (isom/iso2/avc1/mp41)
File size : 1.04 GiB
Duration : 28mn 51s
Overall bit rate mode : Variable
Overall bit rate : 5 165 Kbps

Video
ID : 1
Format : AVC
Format/Info : Advanced Video Codec
Format profile : [email protected]
Format settings, CABAC : Yes
Format settings, ReFrames : 4 frames
Codec ID : avc1
Codec ID/Info : Advanced Video Coding
Duration : 28mn 51s
Bit rate : 5 030 Kbps
Width : 1 280 pixels
Height : 720 pixels
Display aspect ratio : 16:9
Frame rate mode : Constant
Frame rate : 50.000 fps
Color space : YUV
Chroma subsampling : 4:2:0
Bit depth : 8 bits
Scan type : Progressive
Bits/(Pixel*Frame) : 0.109
Stream size : 1.01 GiB (97%)
Encoded date : UTC 1904-01-01 00:00:00
Tagged date : UTC 1904-01-01 00:00:00
Color range : Limited
Color primaries : BT.709
Transfer characteristics : BT.709
Matrix coefficients : BT.709

Audio
ID : 2
Format : AAC
Format/Info : Advanced Audio Codec
Format profile : LC
Codec ID : 40
Duration : 28mn 51s
Bit rate mode : Variable
Bit rate : 128 Kbps
Maximum bit rate : 131 Kbps
Channel(s) : 2 channels
Channel positions : Front: L R
Sampling rate : 48.0 KHz
Frame rate : 46.875 fps (1024 spf)
Compression mode : Lossy
Stream size : 26.4 MiB (2%)
Language : English


Similar torrents

  No similar torrents were found.

  User comments

No comments have been posted yet.


Post anonymous comment
:) :( :D :P :-) B) 8o :? 8) ;) :-* :-( :| O:-D :-@ :facepalm :o) brb :warn :help :bad :love :idea :bomb :!


CAPTCHA Image