Torrent details for "The Apprentice S15E02 Ice Lollies (1280x720p HD, 50fps, soft Eng subs) "    Log in to bookmark

Loading...
Loading...
Torrent details
Cover
Download
Torrent rating (0 rated)
Controls:
Category:
Language:
English English
Total Size:
2.13 GB
Info Hash:
5c48348d3659bf98937f8b7eb73592487b1a1d31
Added By:
Added:  
09-10-2019 22:38 (edited 09-10-2019 23:16) by ElsonRoa:_trusted_uploader::_junkie:
Views:
65
Health:
Seeds:
7
Leechers:
0
Completed:
35

File List (7) : 

Description
The Apprentice S15E02 Ice Lollies (1280x720p HD, 50fps, soft Eng subs)

Lord Sugar summons the candidates to Alexandra Palace. In the centre of the venue's famous ice rink, he reveals to them that for this week's task they will be creating and selling their own range of ice lollies. They will need to create two original lollies each, one to pitch to a corporate client and the other to sell to the general public.  

As well as developing their original flavours the teams need to get their skates on as they will have to manufacture all their lollies before they can sell them. The task requires creativity in the kitchen while always keeping an eye on the margins. Get either of these wrong and they could receive an icy reception in the boardroom.  

In the kitchen, one team takes a gamble with daring ingredients, while on the other team a last-minute switch leads to a chilly corporate meeting.  

In the boardroom, one team is frozen out and one candidate put on ice as they become the second person to be told, 'You're Fired!'

First broadcast:  9 October 2019
Duration: 1 hour
Torrent dead? Request reseed at www.torrentgalaxy.eu - or ask at elsonroa at tutanota.com

Media info:-
General
Format : MPEG-4
Format profile : Base Media
Codec ID : isom (isom/iso2/avc1/mp41)
File size : 2.13 GiB
Duration : 58mn 57s
Overall bit rate : 5 179 Kbps

Video
ID : 1
Format : AVC
Format/Info : Advanced Video Codec
Format profile : [email protected]
Format settings, CABAC : Yes
Format settings, ReFrames : 4 frames
Codec ID : avc1
Codec ID/Info : Advanced Video Coding
Duration : 58mn 57s
Bit rate : 5 044 Kbps
Width : 1 280 pixels
Height : 720 pixels
Display aspect ratio : 16:9
Frame rate mode : Constant
Frame rate : 50.000 fps
Color space : YUV
Chroma subsampling : 4:2:0
Bit depth : 8 bits
Scan type : Progressive
Bits/(Pixel*Frame) : 0.109
Stream size : 2.08 GiB (97%)
Encoded date : UTC 1904-01-01 00:00:00
Tagged date : UTC 1904-01-01 00:00:00
Color range : Limited
Color primaries : BT.709
Transfer characteristics : BT.709
Matrix coefficients : BT.709

Audio
ID : 2
Format : AAC
Format/Info : Advanced Audio Codec
Format profile : LC
Codec ID : 40
Duration : 58mn 57s
Bit rate mode : Constant
Bit rate : 128 Kbps
Channel(s) : 2 channels
Channel positions : Front: L R
Sampling rate : 48.0 KHz
Frame rate : 46.875 fps (1024 spf)
Compression mode : Lossy
Stream size : 54.0 MiB (2%)
Language : English


Similar torrents

  No similar torrents were found.

  User comments

No comments have been posted yet.


Post anonymous comment
:) :( :D :P :-) B) 8o :? 8) ;) :-* :-( :| O:-D :-@ :facepalm :o) brb :warn :help :bad :love :idea :bomb :!


CAPTCHA Image